Navigation
 Index
 Memberlist
 Profile
 FAQ
 Search
Latest topics
» Perkhidmatan Kereta Sewa Shah Alam
Wed Sep 09, 2015 2:48 am by sksportcar

» Homestay Di Kota Bharu
Sun Jan 25, 2015 10:52 pm by sksportcar

» Kereta Sewa Shah Alam
Tue Aug 05, 2014 8:54 am by sksportcar

» Bahasa Jepun: Ayat Seharian,Hari,Haribulan & Nombor
Mon Sep 23, 2013 8:43 pm by foxfoxer

» Tips nak hapuskan virus secara manual [On updates]
Tue Mar 19, 2013 8:38 am by Optitech

» Teknik defense dari virus and spyware [Auto]
Thu Jul 21, 2011 2:53 am by Optitech

» Virus shortcut kat pendrive
Thu Jul 21, 2011 12:27 am by Optitech

» Admin Kembali dengan Menyengat
Wed Jul 20, 2011 1:59 pm by Optitech

» Xcode Magazine - Penulisan daripada hacker
Wed Jul 20, 2011 12:45 pm by Optitech


Percy Jackson And the Olympians The Lightning Thief

View previous topic View next topic Go down

Percy Jackson And the Olympians The Lightning Thief

Post  Miyavi on Mon Feb 15, 2010 2:21 pm

Percy Jackson And the Olympians The Lightning Thief

Percy Jackson And the Olympians The Lightning Thief 2010 Cam Xvid Eng
LU





Check Download Links
Code:
http://www.imdb.com/title/tt0814255/



Check Download Links
Code:

Genre : Adventure / Fantasy

Code:

Plot : It's the 21st century, but the gods of Mount Olympus and assorted monsters have walked out of the pages of high school student Percy Jackson's Greek mythology texts and into his life. And they're not happy: Zeus' lightning bolt has been stolen, and Percy is the prime suspect. Even more troubling is the sudden disappearance of Percy's mother. As Percy finds himself caught between angry and battling gods, he and his friends embark on a cross-country adventure to catch the true lightning thief, save Percy's mom, and unravel a mystery more powerful than the gods themselves.

Infomation
Complete name : Percy.Jackson.And.the.Olympians.The.Lightning.Thief.2010.Eng.LU
Format : AVI
Format/Info : Audio Video Interleave
File size : 702 MiB
Duration : 1h 51mn
Overall bit rate : 883 Kbps
Movie name : Percy Jackson & the Olympians: The Lightning Thief (2010)
Director : ELEKTRI4KA
Writing application : VirtualDubMod 1.5.10.2 (build 2540/release)
Writing library : VirtualDub build 32706/release

Video
ID : 0
Format : MPEG-4 Visual
Format profile : Advanced Simple@L5
Format settings, BVOP : Yes
Format settings, QPel : No
Format settings, GMC : No warppoints
Format settings, Matrix : Default (H.263)
Codec ID : XVID
Codec ID/Hint : XviD
Duration : 1h 51mn
Bit rate : 745 Kbps
Width : 640 pixels
Height : 272 pixels
Display aspect ratio : 2.35:1
Frame rate : 25.000 fps
Resolution : 8 bits
Colorimetry : 4:2:0
Scan type : Progressive
Bits/(Pixel*Frame) : 0.171
Stream size : 592 MiB (84%)
Writing library : XviD 1.2.1 (UTC 2008-12-04)

Audio
ID : 1
Format : MPEG Audio
Format version : Version 1
Format profile : Layer 3
Codec ID : 55
Codec ID/Hint : MP3
Duration : 1h 51mn
Bit rate mode : Constant
Bit rate : 128 Kbps
Channel(s) : 2 channels
Sampling rate : 44.1 KHz
Stream size : 102 MiB (15%)
Alignment : Split accross interleaves
Interleave, duration : 40 ms (1.00 video frame)
Interleave, preload duration : 500 ms

Video is ELEKTRI4KA thanks guys.

http://www.imdb.com/title/tt0814255/





Check Download Links
Code:

DOWNLOAD NOW:

Spoiler:

http://www.bigandfree.com/12076343/_5Bwww.bayw.org_5D.Percy.Jackson.And.the.Olympians.The.Lightning.Thief.2010.Eng.LU.avi.html

OR

Spoiler:

http://www.storage.to/get/bw8IMAUk/%255Bwww.bayw.org%255D.Percy.Jackson.And.the.Olympians.The.Lightning.Thief.2010.Eng.LU.avi

OR

Spoiler:

http://www.megaupload.com/?d=G4MMJ782
http://www.megaupload.com/?d=9V1UJYNQ
http://www.megaupload.com/?d=HXNP2PUP
http://www.megaupload.com/?d=8BRIDY85

OR

Spoiler:

http://www.BigAndFree.com/12076348/percjac.part1.rar.html
http://www.BigAndFree.com/12076349/percjac.part2.rar.html
http://www.BigAndFree.com/12076350/percjac.part3.rar.html
http://www.BigAndFree.com/12076351/percjac.part4.rar.html

OR

Spoiler:

http://hotfile.com/dl/28622139/c9db946/percjac.part1.rar.html
http://hotfile.com/dl/28622187/fa3741a/percjac.part2.rar.html
http://hotfile.com/dl/28622229/57c11d7/percjac.part3.rar.html
http://hotfile.com/dl/28622241/d2e4de7/percjac.part4.rar.html

OR

Spoiler:

http://www.storage.to/get/8go2YRX0/percjac.part1.rar
http://www.storage.to/get/ejaB7we1/percjac.part2.rar
http://www.storage.to/get/x6XoPnv0/percjac.part3.rar
http://www.storage.to/get/gdYWg4SX/percjac.part4.rar

OR

Spoiler:

http://netload.in/datei1PUCJNdDvA/percjac.part1.rar.htm
http://netload.in/dateiPdVAc3RDKx/percjac.part2.rar.htm
http://netload.in/dateilnr8KBBaFa/percjac.part3.rar.htm
http://netload.in/datei0rEuf857Ha/percjac.part4.rar.htm

OR

Spoiler:

http://rapidshare.com/files/350792679/percjac.part1.rar
http://rapidshare.com/files/350792452/percjac.part2.rar
http://rapidshare.com/files/350792387/percjac.part3.rar
http://rapidshare.com/files/350793569/percjac.part4.rar

Anything else....u can visit my sharing zone....
http://miyavi.sharingzone.net

Enjoy

_________________
--Miyavi Kazuma--

Miyavi
Admin

Posts : 371
Join date : 2010-01-01
Age : 26
Location : ProxyFireZ

Back to top Go down

View previous topic View next topic Back to top

- Similar topics

 
Permissions in this forum:
You cannot reply to topics in this forum